<?xml version="1.0" standalone="no"?>
<!DOCTYPE svg PUBLIC "-//W3C//DTD SVG 1.1//EN" "http://www.w3.org/Graphics/SVG/1.1/DTD/svg11.dtd" >
<svg xmlns="http://www.w3.org/2000/svg" xmlns:xlink="http://www.w3.org/1999/xlink" version="1.1">
<metadata></metadata>
<defs>
<font id="korolevmedium" horiz-adv-x="581" >
<font-face units-per-em="1000" ascent="800" descent="-200" />
<missing-glyph horiz-adv-x="220" />
<glyph unicode="&#xfb01;" horiz-adv-x="507" d="M96 0v481h-61v81h61v21q0 88 45 135t134 47q75 0 121 -36t46 -100h-93q0 18 -18 33t-56 15q-49 0 -67 -21t-18 -78v-16h79v-81h-79v-481h-94zM349 0v563h93v-563h-93z" />
<glyph unicode="&#xfb02;" horiz-adv-x="507" d="M96 0v481h-61v81h61q0 203 173 203q82 0 127.5 -48.5t45.5 -136.5v-580h-94v582q0 93 -79 93q-45 0 -62 -25.5t-17 -87.5h79v-81h-79v-481h-94z" />
<glyph horiz-adv-x="0" />
<glyph horiz-adv-x="333" />
<glyph unicode=" "  horiz-adv-x="220" />
<glyph unicode="&#x09;" horiz-adv-x="220" />
<glyph unicode="&#xa0;" horiz-adv-x="220" />
<glyph unicode="!" horiz-adv-x="223" d="M63 542q-9 103 -9 113q0 25 15.5 41t41.5 16t41.5 -16t15.5 -41q0 -9 -9 -113l-35 -365h-26zM52 52q0 25 17.5 42.5t41.5 17.5q25 0 42.5 -17.5t17.5 -42.5q0 -24 -17.5 -41.5t-42.5 -17.5q-24 0 -41.5 17.5t-17.5 41.5z" />
<glyph unicode="&#x22;" horiz-adv-x="363" d="M59 372l-14 333h100l-13 -333h-73zM218 705h100l-14 -333h-73z" />
<glyph unicode="#" horiz-adv-x="636" d="M64 -51l71 273h-80v86h102l23 91h-125v86h148l71 274h91l-71 -274h95l71 274h91l-71 -274h81v-86h-104l-23 -91h127v-86h-150l-70 -273h-91l71 273h-96l-70 -273h-91zM248 308h95l23 91h-95z" />
<glyph unicode="$" horiz-adv-x="561" d="M207 -2q-76 20 -118 80.5t-42 155.5h97q0 -77 37.5 -115t102.5 -38q61 0 98.5 28.5t37.5 82.5q0 22 -9.5 40t-19.5 28t-37 22t-39 16t-48 14q-13 4 -20 6q-43 13 -70.5 25t-58 34.5t-46 58t-15.5 83.5q0 77 39 126t111 65v79h41v-72q10 1 31 1q12 0 36 -2v73h41v-81 q73 -21 113.5 -80t40.5 -149h-97q0 72 -35.5 110t-98.5 38q-60 0 -92.5 -28t-32.5 -80q0 -23 9.5 -41t21.5 -29.5t36.5 -22.5t41 -16t49.5 -14q39 -11 60 -18.5t53.5 -24t49.5 -35.5t30 -51t13 -73q0 -81 -42.5 -132t-119.5 -67v-76h-41v70q-10 -1 -31 -1q-14 0 -36 2v-71 h-41v79z" />
<glyph unicode="%" horiz-adv-x="1138" d="M421 -51l203 810h91l-204 -810h-90zM50 454v40q0 102 53 161.5t147 59.5q93 0 146.5 -60t53.5 -161v-40q0 -104 -53.5 -164t-146.5 -60q-95 0 -147.5 60t-52.5 164zM139 452q0 -137 111 -137q53 0 82 34.5t29 102.5v42q0 67 -29 101.5t-82 34.5q-111 0 -111 -136v-42z M687 215v41q0 102 53 161.5t147 59.5q93 0 147 -60t54 -161v-41q0 -104 -53.5 -163.5t-147.5 -59.5q-95 0 -147.5 59.5t-52.5 163.5zM776 214q0 -137 111 -137q53 0 82.5 34t29.5 103v42q0 66 -29.5 101t-82.5 35q-52 0 -81.5 -35t-29.5 -101v-42z" />
<glyph unicode="&#x26;" horiz-adv-x="659" d="M290 -13q-116 0 -180.5 58.5t-64.5 160.5q0 62 33 102.5t81 54.5q-48 18 -75 59t-27 99q0 86 64.5 141.5t166.5 55.5q103 0 167.5 -63.5t64.5 -172.5h-100q0 145 -130 145q-61 0 -99 -27t-38 -78q0 -54 33 -87.5t90 -33.5h68v-86h-71q-60 0 -95 -27.5t-35 -79.5 q0 -62 41.5 -94t106.5 -32q64 0 108 39t44 118v162h171v-90h-74q0 -49 -3 -96q-9 -114 -76 -171t-171 -57z" />
<glyph unicode="'" horiz-adv-x="190" d="M58 372l-13 333h100l-14 -333h-73z" />
<glyph unicode="(" horiz-adv-x="310" d="M265 -50q-122 0 -166 52.5t-44 177.5v347q0 125 44 177.5t166 52.5v-85q-72 0 -94.5 -28t-22.5 -99v-383q0 -72 22 -99.5t95 -27.5v-85z" />
<glyph unicode=")" horiz-adv-x="310" d="M45 35q73 0 95 27.5t22 99.5v383q0 71 -22.5 99t-94.5 28v85q122 0 166 -52.5t44 -177.5v-347q0 -125 -44 -177.5t-166 -52.5v85z" />
<glyph unicode="*" horiz-adv-x="524" d="M229 308l2 146l-129 -75l-35 57l130 72l-130 70l35 59l129 -76l-2 149h69l-4 -148l129 74l36 -58l-132 -70l132 -71l-36 -58l-129 75l4 -146h-69z" />
<glyph unicode="+" horiz-adv-x="506" d="M210 150v160h-155v86h155v159h86v-159h155v-86h-155v-160h-86z" />
<glyph unicode="," horiz-adv-x="246" d="M5 -126l104 323h102l-132 -323h-74z" />
<glyph unicode="-" horiz-adv-x="353" d="M45 246v75h263v-75h-263z" />
<glyph unicode="." horiz-adv-x="208" d="M104 -7q-25 0 -42 17.5t-17 41.5q0 25 17 42.5t42 17.5t42 -17.5t17 -42.5q0 -24 -17 -41.5t-42 -17.5z" />
<glyph unicode="/" horiz-adv-x="335" d="M15 -51l209 810h96l-210 -810h-95z" />
<glyph unicode="0" d="M290 -9q-104 0 -169.5 68t-65.5 176v237q0 108 65.5 176.5t169.5 68.5t170 -68.5t66 -176.5v-237q0 -108 -66 -176t-170 -68zM153 254q0 -86 37 -127t100 -41t100.5 41t37.5 126v201q0 85 -37.5 126.5t-100.5 41.5t-100 -41.5t-37 -127.5v-199z" />
<glyph unicode="1" horiz-adv-x="292" d="M119 562q-25 -20 -84 -20v95q55 0 73 14.5t18 53.5h91v-705h-98v562z" />
<glyph unicode="2" horiz-adv-x="563" d="M45 74q0 41 13 76t29 57t48 45.5t52 34t59 30.5l12 6q37 18 59 31.5t46.5 34t36 46.5t11.5 59q0 60 -37.5 95t-97.5 35q-67 0 -101 -39t-34 -103h-96q0 106 64.5 171t165.5 65q103 0 168 -62t65 -161q0 -22 -2.5 -42t-11 -37.5t-14 -31t-21 -29t-22 -23.5t-28 -22 t-27 -18.5t-31.5 -17.5t-29.5 -14.5t-31.5 -15.5q-35 -17 -55.5 -29t-44 -30.5t-35 -40.5t-12.5 -49h353v-95h-451v74z" />
<glyph unicode="3" horiz-adv-x="571" d="M285 -11q-108 0 -174 65t-66 180h100q0 -78 37.5 -116t102.5 -38q60 0 101.5 32.5t41.5 91.5q0 111 -130 111h-95v86h92q51 0 86.5 31t35.5 78q0 59 -39 90.5t-99 31.5q-62 0 -97.5 -36.5t-35.5 -113.5h-95q0 110 62 173t169 63q102 0 167 -55.5t65 -141.5 q0 -59 -27 -100t-76 -58q49 -14 82 -53t33 -101q0 -101 -66.5 -160.5t-174.5 -59.5z" />
<glyph unicode="4" horiz-adv-x="591" d="M360 0v170h-325v91l328 444h92v-444h91v-91h-91v-170h-95zM134 261h226v306z" />
<glyph unicode="5" horiz-adv-x="576" d="M285 -11q-104 0 -169.5 68t-65.5 176h97q0 -77 36 -113.5t99 -36.5q60 0 100.5 36t40.5 109v31q0 60 -40.5 95.5t-98.5 35.5q-86 0 -128 -74l-93 21l65 368h354v-95h-274l-34 -186q18 23 56 40t82 17q92 0 150.5 -58.5t58.5 -163.5v-31q0 -107 -65.5 -173t-170.5 -66z " />
<glyph unicode="6" horiz-adv-x="559" d="M279 -11q-107 0 -170.5 66.5t-63.5 176.5v26q0 64 15.5 112t45.5 101l134 234h106l-128 -219q36 13 82 13q100 0 157 -62.5t57 -165.5v-39q0 -110 -64.5 -176.5t-170.5 -66.5zM143 238q0 -154 136 -154q63 0 100 37.5t37 116.5v36q0 71 -37 107.5t-100 36.5t-99.5 -36.5 t-36.5 -107.5v-36z" />
<glyph unicode="7" horiz-adv-x="493" d="M128 0l211 610h-294v95h423l-242 -705h-98z" />
<glyph unicode="8" horiz-adv-x="571" d="M285 -6q-108 0 -174 53t-66 145q0 60 28.5 102t81.5 60q-98 41 -98 165q0 91 62.5 141.5t165.5 50.5t166 -51t63 -142q0 -125 -96 -163q108 -35 108 -163q0 -92 -67 -145t-174 -53zM145 201q0 -117 140 -117q141 0 141 120q0 54 -29.5 84t-83.5 30h-50q-55 0 -86.5 -29.5 t-31.5 -87.5zM152 506q0 -62 34 -86.5t99 -24.5h2q65 0 98 25t33 85q0 116 -133 116t-133 -115z" />
<glyph unicode="9" horiz-adv-x="559" d="M340 219q-41 -13 -81 -13q-100 0 -157 62.5t-57 165.5v39q0 110 64 176.5t170 66.5q107 0 171 -66.5t64 -176.5v-31q0 -101 -61 -207l-135 -235h-106zM143 431q0 -71 36.5 -107t99.5 -36q64 0 100.5 36t36.5 107v37q0 153 -137 153q-136 0 -136 -153v-37z" />
<glyph unicode=":" horiz-adv-x="208" d="M104 448q-25 0 -42 17.5t-17 41.5q0 25 17 42.5t42 17.5t42 -17.5t17 -42.5q0 -24 -17 -41.5t-42 -17.5zM45 52q0 25 17 42.5t42 17.5t42 -17.5t17 -42.5q0 -24 -17 -41.5t-42 -17.5t-42 17.5t-17 41.5z" />
<glyph unicode=";" horiz-adv-x="256" d="M5 -126l104 323h102l-132 -323h-74zM85 507q0 25 17.5 42.5t41.5 17.5q25 0 42.5 -17.5t17.5 -42.5q0 -24 -17.5 -41.5t-42.5 -17.5q-24 0 -41.5 17.5t-17.5 41.5z" />
<glyph unicode="&#x3c;" horiz-adv-x="467" d="M412 71l-357 173v86l357 174v-92l-273 -125l273 -125v-91z" />
<glyph unicode="=" horiz-adv-x="476" d="M55 394v86h366v-86h-366zM55 227v86h366v-86h-366z" />
<glyph unicode="&#x3e;" horiz-adv-x="467" d="M55 71v91l267 125l-267 125v92l357 -172v-86z" />
<glyph unicode="?" horiz-adv-x="520" d="M218 177q-8 40 -8 64q0 44 18.5 75t44.5 49.5t52 36.5t44.5 45.5t18.5 66.5q0 50 -36.5 80t-95.5 30q-135 0 -135 -142h-96q0 112 61.5 174t169.5 62q101 0 165 -55.5t64 -137.5q0 -46 -13 -80t-34.5 -54.5t-46.5 -36.5t-50.5 -30.5t-47 -32t-34.5 -46.5t-13 -68h-28z M173 52q0 25 17.5 42.5t42.5 17.5t42 -17.5t17 -42.5q0 -24 -17 -41t-42 -17t-42.5 17t-17.5 41z" />
<glyph unicode="@" horiz-adv-x="715" d="M384 -49q-163 0 -246 81t-83 227v185q0 145 79.5 228.5t225.5 83.5q145 0 222.5 -83t77.5 -229v-133q0 -102 -62 -149.5t-171 -39.5v47q-27 -53 -91 -53q-69 0 -99.5 44t-30.5 143v117q0 79 34 122.5t96 43.5q64 0 91 -53v48h79v-378q38 1 56 27.5t18 90.5v123 q0 120 -58 176t-162 56q-105 0 -165 -56.5t-60 -175.5v-185q0 -120 63 -174t186 -54h182v-80h-182zM289 290q0 -56 16 -81t52 -25q35 0 51 25t16 81v122q0 105 -67 105q-36 0 -52 -24.5t-16 -80.5v-122z" />
<glyph unicode="A" horiz-adv-x="586" d="M11 0l229 705h110l225 -705h-103l-48 159h-262l-49 -159h-102zM187 244h213l-105 353z" />
<glyph unicode="B" horiz-adv-x="567" d="M75 0v705h210q109 0 170 -45t61 -140v-10q0 -117 -101 -155q107 -38 107 -156v-8q0 -97 -61 -144t-169 -47h-217zM173 94h116q136 0 136 107v13q0 102 -126 102h-126v-222zM173 394h134q111 0 111 102v14q0 56 -35.5 78t-100.5 22h-109v-216z" />
<glyph unicode="C" horiz-adv-x="571" d="M290 -10q-104 0 -169.5 68.5t-65.5 176.5v239q0 108 65.5 176t169.5 68q107 0 171.5 -71t64.5 -183v-6h-98v7q0 67 -35.5 112.5t-102.5 45.5q-57 0 -97 -37t-40 -109v-245q0 -70 38.5 -108.5t98.5 -38.5q71 0 104.5 48.5t33.5 115.5v7h98v-7q0 -115 -64 -187t-172 -72z " />
<glyph unicode="D" horiz-adv-x="592" d="M75 0v705h226q107 0 171.5 -67.5t64.5 -193.5v-182q0 -125 -64.5 -193.5t-171.5 -68.5h-226zM173 94h117q149 0 149 191v137q0 102 -39.5 145t-109.5 43h-117v-516z" />
<glyph unicode="E" horiz-adv-x="517" d="M75 0v705h392v-95h-294v-212h214v-87h-214v-216h294v-95h-392z" />
<glyph unicode="F" horiz-adv-x="492" d="M75 0v705h377v-95h-279v-212h198v-87h-198v-311h-98z" />
<glyph unicode="G" horiz-adv-x="580" d="M289 -10q-104 0 -169 68t-65 176v239q0 108 65.5 176.5t168.5 68.5q102 0 168 -67t68 -172h-98q-1 69 -39.5 106.5t-98.5 37.5q-136 0 -136 -179v-213q0 -70 38.5 -108t97.5 -38q60 0 99 38.5t39 107.5v26h-137v87h235v-110q0 -108 -66 -176t-170 -68z" />
<glyph unicode="H" horiz-adv-x="605" d="M75 0v705h98v-308h259v308h98v-705h-98v311h-259v-311h-98z" />
<glyph unicode="I" horiz-adv-x="248" d="M75 0v705h98v-705h-98z" />
<glyph unicode="J" horiz-adv-x="551" d="M260 -11q-104 0 -164.5 66t-60.5 190v18h98v-21q0 -90 35 -124t92 -34q59 0 93.5 39t34.5 119v463h98v-453q0 -129 -61.5 -196t-164.5 -67z" />
<glyph unicode="K" horiz-adv-x="569" d="M75 0v705h98v-302h65l191 302h115l-223 -348l223 -357h-115l-191 313h-65v-313h-98z" />
<glyph unicode="L" horiz-adv-x="469" d="M75 0v705h98v-610h271v-95h-369z" />
<glyph unicode="M" horiz-adv-x="735" d="M75 0v705h96l196 -455l197 455h96v-705h-98v490l-160 -368h-70l-159 366v-488h-98z" />
<glyph unicode="N" horiz-adv-x="624" d="M75 0v705h91l284 -518v518h99v-705h-92l-284 516v-516h-98z" />
<glyph unicode="O" d="M290 -9q-104 0 -169.5 68t-65.5 176v237q0 108 65.5 176.5t169.5 68.5t170 -68.5t66 -176.5v-237q0 -108 -66 -176t-170 -68zM153 232q0 -70 38.5 -108.5t98.5 -38.5q57 0 97 37t40 109v245q0 70 -38.5 108.5t-98.5 38.5q-57 0 -97 -37t-40 -109v-245z" />
<glyph unicode="P" horiz-adv-x="563" d="M75 0v705h207q107 0 174 -65.5t67 -182.5v-27q0 -116 -67 -180t-174 -64h-109v-186h-98zM173 280h104q67 0 108 37.5t41 113.5v26q0 153 -149 153h-104v-330z" />
<glyph unicode="Q" d="M247 -5q-87 13 -139.5 77t-52.5 160v240q0 108 65.5 176.5t169.5 68.5t170 -68.5t66 -176.5v-240q0 -92 -46.5 -154t-128.5 -81l76 -131h-115zM153 232q0 -70 38.5 -108.5t98.5 -38.5q57 0 97 37t40 109v245q0 70 -38.5 108.5t-98.5 38.5q-57 0 -97 -37t-40 -109v-245z " />
<glyph unicode="R" horiz-adv-x="563" d="M75 0v705h213q109 0 172 -64.5t63 -181.5v-20q0 -85 -41 -140.5t-112 -74.5l150 -224h-113l-130 203h-104v-203h-98zM173 297h104q67 0 108 35.5t41 107.5v24q0 146 -149 146h-104v-313z" />
<glyph unicode="S" horiz-adv-x="566" d="M284 -12q-111 0 -174 60t-63 176h97q0 -143 140 -143q61 0 98.5 28.5t37.5 82.5q0 27 -10.5 46t-34 33t-44 21.5t-56.5 17.5q-102 30 -140 55q-78 51 -78 154q0 95 58.5 147t163.5 52q108 0 169.5 -58.5t61.5 -170.5h-97q0 138 -134 138q-60 0 -92.5 -28t-32.5 -80 q0 -23 9.5 -41t21.5 -29.5t36.5 -22.5t40.5 -16t49 -14q39 -11 60.5 -18.5t54 -24t49.5 -35.5t30 -51t13 -73q0 -98 -62.5 -152t-171.5 -54z" />
<glyph unicode="T" horiz-adv-x="499" d="M200 0v610h-170v95h439v-95h-171v-610h-98z" />
<glyph unicode="U" horiz-adv-x="601" d="M300 -9q-104 0 -169.5 68t-65.5 176v470h98v-473q0 -73 39.5 -110t97.5 -37q60 0 99 38.5t39 108.5v473h98v-470q0 -108 -66 -176t-170 -68z" />
<glyph unicode="V" horiz-adv-x="565" d="M230 0l-215 705h104l162 -572l163 572h103l-216 -705h-101z" />
<glyph unicode="W" horiz-adv-x="828" d="M193 0l-178 705h99l132 -536l124 536h87l124 -536l133 536h99l-179 -705h-98l-122 527l-123 -527h-98z" />
<glyph unicode="X" horiz-adv-x="554" d="M15 0l208 361l-199 344h111l142 -257l142 257h110l-199 -344l209 -361h-110l-152 275l-152 -275h-110z" />
<glyph unicode="Y" horiz-adv-x="568" d="M234 0v257l-219 448h106l162 -346l165 346h105l-221 -448v-257h-98z" />
<glyph unicode="Z" horiz-adv-x="504" d="M25 0l291 610h-268v95h416l-292 -610h283v-95h-430z" />
<glyph unicode="[" horiz-adv-x="330" d="M75 -50v807h210v-85h-117v-637h117v-85h-210z" />
<glyph unicode="\" horiz-adv-x="335" d="M224 -51l-209 810h95l210 -810h-96z" />
<glyph unicode="]" horiz-adv-x="330" d="M45 -50v85h117v637h-117v85h210v-807h-210z" />
<glyph unicode="^" horiz-adv-x="522" d="M45 353l172 352h87l173 -352h-92l-125 271l-124 -271h-91z" />
<glyph unicode="_" horiz-adv-x="546" d="M45 -150v75h456v-75h-456z" />
<glyph unicode="`" horiz-adv-x="516" d="M223 584l-98 157h101l72 -157h-75z" />
<glyph unicode="a" horiz-adv-x="538" d="M232 -9q-85 0 -133.5 57.5t-48.5 162.5v140q0 106 49.5 162.5t132.5 56.5q58 0 98 -26.5t55 -59.5v78h88v-562h-88v77q-14 -33 -54 -59.5t-99 -26.5zM144 224q0 -155 118 -155q58 0 88 39.5t30 115.5v119q0 73 -31 111t-87 38q-118 0 -118 -153v-115z" />
<glyph unicode="b" horiz-adv-x="539" d="M306 -9q-63 0 -97.5 22.5t-55.5 63.5v-77h-88v752h93v-259q14 32 51.5 54t96.5 22q86 0 134.5 -57t48.5 -161v-140q0 -106 -48.5 -163t-134.5 -57zM158 223q0 -76 30.5 -115.5t87.5 -39.5q58 0 88.5 40t30.5 115v115q0 74 -30 113.5t-89 39.5q-56 0 -87 -38t-31 -110 v-120z" />
<glyph unicode="c" horiz-adv-x="518" d="M262 -10q-100 0 -156 59.5t-56 161.5v134q0 104 56 164t156 60q101 0 156 -58.5t55 -165.5v-2h-93v2q0 137 -118 137q-62 0 -90.5 -35t-28.5 -114v-123q0 -63 30 -98.5t89 -35.5q118 0 118 137v3h93v-3q0 -104 -55.5 -163.5t-155.5 -59.5z" />
<glyph unicode="d" horiz-adv-x="538" d="M232 -9q-86 0 -134.5 57t-48.5 163v140q0 104 48.5 161t134.5 57q110 0 143 -76v259h98v-752h-88v77q-44 -86 -153 -86zM143 223q0 -75 30.5 -115t88.5 -40q57 0 87.5 39.5t30.5 115.5v120q0 72 -31 110t-87 38q-59 0 -89 -39.5t-30 -113.5v-115z" />
<glyph unicode="e" horiz-adv-x="518" d="M262 -10q-100 0 -156 59.5t-56 161.5v136q0 103 56 163t156 60t155.5 -57.5t55.5 -160.5v-97h-330v-63q0 -58 33.5 -91t85.5 -33t85 29t33 76v9h93v-4q0 -80 -57 -134t-154 -54zM143 323h237v35q0 133 -118 133q-55 0 -87 -32.5t-32 -92.5v-43z" />
<glyph unicode="f" horiz-adv-x="341" d="M96 0v481h-61v81h61q0 117 47 159.5t163 30.5v-80q-69 10 -92.5 -14.5t-23.5 -95.5h115v-81h-115v-481h-94z" />
<glyph unicode="g" horiz-adv-x="538" d="M263 -213q-206 0 -206 168h91q0 -40 28 -67t87 -27q61 0 89 28.5t28 86.5v101q-14 -34 -51.5 -60t-96.5 -26q-85 0 -133.5 57.5t-48.5 162.5v140q0 102 46.5 159t126.5 57q61 0 105 -24t57 -59v78h88v-567q0 -107 -46.5 -157.5t-163.5 -50.5zM144 220q0 -155 118 -155 q56 0 87 38t31 112v143q0 65 -31.5 99.5t-86.5 34.5q-118 0 -118 -153v-119z" />
<glyph unicode="h" horiz-adv-x="544" d="M65 0v752h93v-269q14 43 55 65t96 22q79 0 129.5 -52.5t50.5 -156.5v-361h-94v343q0 75 -26 111.5t-93 36.5t-92.5 -36.5t-25.5 -119.5v-335h-93z" />
<glyph unicode="i" horiz-adv-x="218" d="M62 0v562h93v-562h-93zM50 703q0 25 17 42t42 17t42 -17t17 -42t-17 -42t-42 -17t-42 17t-17 42z" />
<glyph unicode="j" horiz-adv-x="221" d="M-31 -124q55 0 76 27.5t21 99.5v559h93v-541q0 -122 -42 -176t-148 -54v85zM53 703q0 25 17 42t42 17t42 -17t17 -42t-17 -42t-42 -17t-42 17t-17 42z" />
<glyph unicode="k" horiz-adv-x="509" d="M65 0v752h94v-431h54l161 241h111l-197 -279l199 -283h-112l-162 242h-54v-242h-94z" />
<glyph unicode="l" horiz-adv-x="224" d="M65 0v759h94v-759h-94z" />
<glyph unicode="m" horiz-adv-x="778" d="M65 0v562h88v-66q14 28 46 50.5t82 22.5q99 0 140 -90q15 37 55.5 63.5t95.5 26.5q73 0 112 -52t39 -147v-370h-94v387q0 108 -94 108t-94 -104v-391h-94v387q0 108 -94 108q-46 0 -70.5 -26.5t-24.5 -77.5v-391h-93z" />
<glyph unicode="n" horiz-adv-x="544" d="M65 0v562h88v-79q14 33 54.5 59.5t98.5 26.5q86 0 134.5 -57t48.5 -161v-351h-94v340q0 74 -27.5 112.5t-91.5 38.5q-65 0 -91.5 -37t-26.5 -119v-335h-93z" />
<glyph unicode="o" horiz-adv-x="523" d="M262 -10q-100 0 -156 60t-56 164v133q0 102 56 161.5t156 59.5q98 0 154.5 -60t56.5 -161v-133q0 -104 -56 -164t-155 -60zM143 202q0 -61 32 -94t87 -33q53 0 85.5 33t32.5 94v156q0 60 -32 92.5t-86 32.5q-55 0 -87 -32.5t-32 -92.5v-156z" />
<glyph unicode="p" horiz-adv-x="544" d="M65 -197v759h88v-80q14 33 54.5 60t98.5 27q183 0 183 -252v-105q0 -105 -48.5 -162t-134.5 -57q-58 0 -96 24t-52 57v-271h-93zM158 224q0 -75 30.5 -114t87.5 -39q119 0 119 153v112q0 75 -30.5 115t-88.5 40q-56 0 -87 -39t-31 -112v-116z" />
<glyph unicode="q" horiz-adv-x="543" d="M385 73q-14 -33 -51.5 -56.5t-96.5 -23.5q-85 0 -133.5 57t-48.5 162v136q0 105 48.5 162.5t133.5 57.5q59 0 99 -26.5t54 -60.5v81h88v-759h-93v270zM149 218q0 -153 118 -153q57 0 87.5 39t30.5 114v122q0 74 -31 112t-87 38q-118 0 -118 -155v-117z" />
<glyph unicode="r" horiz-adv-x="352" d="M65 0v562h88v-102q13 52 56.5 82.5t106.5 26.5v-93q-78 4 -118 -34.5t-40 -116.5v-325h-93z" />
<glyph unicode="s" horiz-adv-x="503" d="M255 -10q-101 0 -159 54t-58 149h93q0 -59 33.5 -91t90.5 -32q50 0 82 23.5t32 62.5q0 28 -23.5 47t-58.5 27.5t-75.5 21t-75.5 27.5t-58.5 49t-23.5 83q0 75 52 117t145 42q206 0 206 -196h-88q0 63 -29 89.5t-89 26.5q-105 0 -105 -77q0 -32 23.5 -52.5t58.5 -29.5 t76.5 -21.5t76.5 -26.5t58.5 -47t23.5 -81q0 -76 -54 -120.5t-154 -44.5z" />
<glyph unicode="t" horiz-adv-x="338" d="M303 -5q-128 -13 -175 35t-47 179v273h-56l-1 71q49 0 71 27t22 94h58v-112h123v-80h-123v-260q0 -56 2 -80t16 -42t37.5 -20.5t72.5 0.5v-85z" />
<glyph unicode="u" horiz-adv-x="534" d="M267 -10q-98 0 -155 57.5t-57 154.5v360h93v-373q0 -54 34.5 -84t84.5 -30q51 0 84.5 30.5t33.5 83.5v373h94v-360q0 -96 -58 -154t-154 -58z" />
<glyph unicode="v" horiz-adv-x="510" d="M207 0l-190 562h104l135 -436l133 436h104l-189 -562h-97z" />
<glyph unicode="w" horiz-adv-x="742" d="M174 0l-159 562h99l109 -415l107 415h82l107 -416l110 416h98l-160 -562h-91l-105 400l-106 -400h-91z" />
<glyph unicode="x" horiz-adv-x="524" d="M20 0l190 289l-178 273h109l121 -198l121 198h109l-178 -273l190 -289h-107l-136 215l-134 -215h-107z" />
<glyph unicode="y" horiz-adv-x="515" d="M139 -197l70 200l-192 559h104l137 -433l138 433h102l-262 -759h-97z" />
<glyph unicode="z" horiz-adv-x="458" d="M25 0l257 477h-242v85h383l-257 -477h245v-85h-386z" />
<glyph unicode="{" horiz-adv-x="336" d="M291 -52q-109 0 -154.5 54t-45.5 176v63q0 38 -11.5 54.5t-44.5 16.5v80q33 0 44.5 16.5t11.5 55.5v63q0 122 45.5 176t154.5 54v-85q-67 0 -87 -36.5t-20 -122.5v-18q0 -65 -13.5 -99t-52.5 -45q39 -13 52.5 -45.5t13.5 -90.5v-23q0 -80 24 -119.5t83 -39.5v-85z" />
<glyph unicode="|" horiz-adv-x="224" d="M65 -51v810h94v-810h-94z" />
<glyph unicode="}" horiz-adv-x="336" d="M45 33q59 0 83 39.5t24 119.5v23q0 58 13.5 90.5t52.5 45.5q-39 11 -52.5 45t-13.5 99v18q0 86 -20 122.5t-87 36.5v85q109 0 154.5 -54t45.5 -176v-63q0 -39 11.5 -55.5t44.5 -16.5v-80q-33 0 -44.5 -16.5t-11.5 -54.5v-63q0 -122 -45.5 -176t-154.5 -54v85z" />
<glyph unicode="&#xa1;" horiz-adv-x="208" d="M103 -7q-26 0 -41.5 16t-15.5 41q0 9 9 113l35 365h26l35 -365q9 -104 9 -113q0 -25 -15.5 -41t-41.5 -16zM45 653q0 24 17 41.5t42 17.5t42 -17.5t17 -41.5q0 -25 -17 -42.5t-42 -17.5t-42 17.5t-17 42.5z" />
<glyph unicode="&#xa2;" horiz-adv-x="518" d="M186 1q-65 19 -100.5 74t-35.5 136v134q0 82 35.5 137.5t100.5 74.5v83h41v-74q16 3 35 3q12 0 32 -2v73h41v-82q67 -20 102.5 -74.5t35.5 -139.5v-3h-93v3q0 136 -118 136q-62 0 -90.5 -35t-28.5 -114v-123q0 -63 30 -98.5t89 -35.5q118 0 118 136v4h93v-4 q0 -83 -35.5 -137t-102.5 -73v-81h-41v73q-20 -2 -32 -2q-18 0 -35 3v-74h-41v82z" />
<glyph unicode="&#xa3;" horiz-adv-x="570" d="M55 0v95h204q-4 68 -67 154h-137v40h115q-27 37 -45 68h-70v40h53q-22 52 -22 107q0 98 60.5 156t160.5 58q97 0 157.5 -65t60.5 -171h-95q0 69 -33 105.5t-90 36.5t-90.5 -31t-33.5 -91q0 -53 27 -105h181v-40h-162q5 -8 44 -68h118v-40h-101q57 -83 59 -154h160v-95 h-454z" />
<glyph unicode="&#xa5;" horiz-adv-x="568" d="M234 0v116h-85v40h85v68h-85v40h85l-219 441h106l162 -347l165 347h105l-221 -441h85v-40h-85v-68h83v-40h-83v-116h-98z" />
<glyph unicode="&#xa6;" horiz-adv-x="224" d="M65 -51v353h94v-353h-94zM65 410v349h94v-349h-94z" />
<glyph unicode="&#xa7;" horiz-adv-x="512" d="M255 -126q-101 0 -159 54t-58 149h93q0 -59 33.5 -91t90.5 -32q50 0 82 23.5t32 62.5q0 28 -23.5 47t-58.5 27.5t-75.5 21t-75.5 27.5t-58.5 49t-23.5 83q0 91 81 131q-88 37 -88 126q0 76 54 120.5t154 44.5q101 0 159 -54t58 -149h-93q0 59 -33.5 91t-90.5 32 q-50 0 -82 -23.5t-32 -62.5q0 -28 23.5 -47t58 -27.5t75.5 -21t76 -27.5t58.5 -49t23.5 -83q0 -92 -87 -131q94 -36 94 -126q0 -76 -54 -120.5t-154 -44.5zM144 295q0 -35 29 -57.5t82 -22.5t81.5 22.5t28.5 57.5q0 34 -29 56.5t-81 22.5q-53 0 -82 -22.5t-29 -56.5z" />
<glyph unicode="&#xa8;" horiz-adv-x="492" d="M331 582q-19 0 -32.5 14t-13.5 33t13.5 33t32.5 14t33 -14t14 -33t-14 -33t-33 -14zM115 629q0 19 13.5 33t32.5 14t33 -14t14 -33t-14 -33t-33 -14t-32.5 14t-13.5 33z" />
<glyph unicode="&#xa9;" horiz-adv-x="715" d="M360 -49q-139 0 -222 85.5t-83 222.5v185q0 138 83.5 225t221.5 87q137 0 218.5 -87t81.5 -225v-185q0 -138 -81 -223t-219 -85zM135 259q0 -117 60 -172.5t165 -55.5q104 0 162 55t58 173v185q0 117 -58.5 174.5t-161.5 57.5q-104 0 -164.5 -57.5t-60.5 -174.5v-185z M201 269v161q0 80 41 124t116 44q76 0 116.5 -42.5t40.5 -121.5v-17h-85v21q0 38 -19 59t-53 21q-39 0 -55.5 -23t-16.5 -79v-154q0 -72 72 -72t72 70v27h85v-21q0 -77 -41 -119t-116 -42q-74 0 -115.5 43.5t-41.5 120.5z" />
<glyph unicode="&#xaa;" horiz-adv-x="533" d="M232 234q-84 0 -130.5 57t-46.5 163v41q0 102 45 159t123 57q61 0 103 -24t54 -59v78h88v-463h-88v77q-15 -35 -52 -60.5t-96 -25.5zM149 447q0 -135 113 -135t113 135v60q0 63 -29.5 96t-83.5 33q-113 0 -113 -134v-55zM203 52q0 25 17.5 42.5t41.5 17.5 q25 0 42.5 -17.5t17.5 -42.5q0 -24 -17.5 -41t-42.5 -17q-24 0 -41.5 17t-17.5 41z" />
<glyph unicode="&#xab;" horiz-adv-x="480" d="M175 84l-130 202l130 203h74l-103 -203l103 -202h-74zM230 286l131 203h74l-104 -203l104 -202h-74z" />
<glyph unicode="&#xad;" horiz-adv-x="353" d="M45 246v75h263v-75h-263z" />
<glyph unicode="&#xae;" horiz-adv-x="715" d="M360 -49q-139 0 -222 85.5t-83 222.5v185q0 138 83.5 225t221.5 87q137 0 218.5 -87t81.5 -225v-185q0 -138 -81 -223t-219 -85zM135 259q0 -117 60 -172.5t165 -55.5q104 0 162 55t58 173v185q0 117 -58.5 174.5t-161.5 57.5q-104 0 -164.5 -57.5t-60.5 -174.5v-185z M217 121v462h123q172 0 172 -175v-6q0 -65 -23 -99.5t-77 -48.5l105 -133h-100l-88 118h-30v-118h-82zM299 318h41q50 0 70 19.5t20 68.5v6q0 49 -20.5 70t-68.5 21h-42v-185z" />
<glyph unicode="&#xaf;" horiz-adv-x="573" d="M146 586v69h281v-69h-281z" />
<glyph unicode="&#xb0;" horiz-adv-x="419" d="M209 385q-73 0 -113.5 43.5t-40.5 119.5v5q0 75 40.5 118.5t113.5 43.5q72 0 113.5 -43.5t41.5 -118.5v-5q0 -76 -41 -119.5t-114 -43.5zM125 539q0 -43 22.5 -66.5t61.5 -23.5t62 23.5t23 66.5v22q0 43 -23.5 66.5t-61.5 23.5q-39 0 -61.5 -23.5t-22.5 -66.5v-22z" />
<glyph unicode="&#xb4;" horiz-adv-x="516" d="M218 584l71 157h102l-99 -157h-74z" />
<glyph unicode="&#xb6;" horiz-adv-x="340" d="M187 417h-49q-83 0 -83 103v80q0 31 8.5 52t19 31.5t33 15.5t35 5.5t41.5 0.5h6h5h6h66v-752h-88v464z" />
<glyph unicode="&#xb7;" horiz-adv-x="208" d="M104 224q-25 0 -42 17.5t-17 41.5q0 25 17 42.5t42 17.5t42 -17.5t17 -42.5q0 -24 -17 -41.5t-42 -17.5z" />
<glyph unicode="&#xb8;" horiz-adv-x="530" d="M146 -159l101 185h59l-59 -185h-101z" />
<glyph unicode="&#xba;" horiz-adv-x="513" d="M257 230q-100 0 -153.5 59.5t-53.5 164.5v40q0 102 53.5 161.5t153.5 59.5q98 0 152 -59.5t54 -161.5v-40q0 -105 -54 -164.5t-152 -59.5zM143 441q0 -61 30 -93.5t84 -32.5q53 0 83 32.5t30 93.5v64q0 60 -30 92.5t-83 32.5q-54 0 -84 -32.5t-30 -92.5v-64zM198 52 q0 25 17 42.5t42 17.5t42 -17.5t17 -42.5q0 -24 -17 -41.5t-42 -17.5t-42 17.5t-17 41.5z" />
<glyph unicode="&#xbb;" horiz-adv-x="480" d="M45 84l104 202l-104 203h74l131 -203l-131 -202h-74zM230 84l104 202l-104 203h74l131 -203l-131 -202h-74z" />
<glyph unicode="&#xbc;" horiz-adv-x="720" d="M543 0v97h-181v68l190 259h72v-248h51v-79h-51v-97h-81zM35 592v79q28 -1 38 6t9 28h77v-394h-81v288q-13 -7 -43 -7zM122 0l289 705h85l-290 -705h-84zM455 176h88v120z" />
<glyph unicode="&#xbd;" horiz-adv-x="735" d="M78 599q-13 -7 -43 -7v79q28 -1 38 6t9 28h77v-394h-81v288zM112 0l289 705h85l-290 -705h-84zM411 0v53q0 75 74 119q10 6 44 23q26 13 38.5 21t23 22.5t10.5 33.5q0 25 -15.5 39t-41.5 14q-61 0 -55 -74h-78q-5 66 32.5 109t100.5 43q59 0 97.5 -36.5t38.5 -93.5 q0 -32 -10.5 -56t-32.5 -41.5t-37 -25.5t-43 -21q-20 -11 -29.5 -16.5t-20.5 -15t-15 -18.5h181v-79h-262z" />
<glyph unicode="&#xbe;" horiz-adv-x="827" d="M650 -11v97h-181v68l190 259h72v-248h51v-79h-51v-97h-81zM45 442h81q0 -31 14 -45t44 -14q61 0 61 53q0 42 -54 42h-55v71h53q50 0 50 47t-57 47q-55 0 -55 -60h-78q-2 58 34 95t99 37q61 0 98.5 -32.5t37.5 -83.5q0 -54 -44 -80q51 -26 51 -84q0 -57 -39 -92t-101 -35 q-70 0 -106 36.5t-34 97.5zM239 0l289 705h85l-290 -705h-84zM562 165h88v120z" />
<glyph unicode="&#xbf;" horiz-adv-x="520" d="M263 -9q-101 0 -164.5 55t-63.5 138q0 46 13 80t34 54t46.5 36t51 30.5t46.5 32t34 47t13 68.5h28q7 -35 7 -65q0 -37 -13 -65.5t-33 -44.5t-42.5 -33t-42.5 -31.5t-33 -39.5t-13 -58q0 -50 37 -80.5t95 -30.5q62 0 98.5 37.5t36.5 104.5h97q0 -112 -62 -173.5 t-170 -61.5zM228 656q0 25 17 42t42 17q24 0 41.5 -17t17.5 -42t-17.5 -42t-41.5 -17q-25 0 -42 17t-17 42z" />
<glyph unicode="&#xc0;" horiz-adv-x="586" d="M11 0l229 705h110l225 -705h-103l-48 159h-262l-49 -159h-102zM166 941h101l72 -157h-75zM187 244h213l-105 353z" />
<glyph unicode="&#xc1;" horiz-adv-x="586" d="M11 0l229 705h110l225 -705h-103l-48 159h-262l-49 -159h-102zM187 244h213l-105 353zM247 784l71 157h102l-99 -157h-74z" />
<glyph unicode="&#xc2;" horiz-adv-x="586" d="M11 0l229 705h110l225 -705h-103l-48 159h-262l-49 -159h-102zM127 765l120 153h92l120 -153h-78l-88 94l-89 -94h-77zM187 244h213l-105 353z" />
<glyph unicode="&#xc3;" horiz-adv-x="586" d="M11 0l229 705h110l225 -705h-103l-48 159h-262l-49 -159h-102zM126 780v74q46 31 91 31q27 0 75 -16t72 -16q47 0 95 35v-74q-44 -34 -90 -34q-27 0 -74 17t-71 18q-48 0 -98 -35zM187 244h213l-105 353z" />
<glyph unicode="&#xc4;" horiz-adv-x="586" d="M11 0l229 705h110l225 -705h-103l-48 159h-262l-49 -159h-102zM161 829q0 19 13.5 33t32.5 14t33 -14t14 -33t-14 -33t-33 -14t-32.5 14t-13.5 33zM187 244h213l-105 353zM331 829q0 19 13.5 33t32.5 14t33 -14t14 -33t-14 -33t-33 -14t-32.5 14t-13.5 33z" />
<glyph unicode="&#xc5;" horiz-adv-x="586" d="M11 0l229 705h110l225 -705h-103l-48 159h-262l-49 -159h-102zM187 244h213l-105 353zM212 862q0 34 24 57t58 23t57 -23t23 -57t-23 -58t-57 -24t-58 24t-24 58zM260 863q0 -14 10 -24t24 -10q13 0 22.5 10t9.5 24q0 13 -9 22.5t-23 9.5t-24 -9.5t-10 -22.5z" />
<glyph unicode="&#xc6;" horiz-adv-x="906" d="M12 0l432 705h412v-95h-294v-212h214v-87h-214v-216h294v-95h-392v159h-247l-97 -159h-108zM264 244h199v331z" />
<glyph unicode="&#xc7;" horiz-adv-x="571" d="M175 -159l82 151q-91 11 -146.5 77.5t-55.5 165.5v239q0 108 65.5 176t169.5 68q107 0 171.5 -71t64.5 -183v-6h-98v7q0 67 -35.5 112.5t-102.5 45.5q-57 0 -97 -37t-40 -109v-245q0 -70 38.5 -108.5t98.5 -38.5q71 0 104.5 48.5t33.5 115.5v7h98v-7q0 -105 -54 -175 t-148 -82l-48 -151h-101z" />
<glyph unicode="&#xc8;" horiz-adv-x="517" d="M75 0v705h392v-95h-294v-212h214v-87h-214v-216h294v-95h-392zM157 941h101l72 -157h-75z" />
<glyph unicode="&#xc9;" horiz-adv-x="517" d="M75 0v705h392v-95h-294v-212h214v-87h-214v-216h294v-95h-392zM217 784l71 157h102l-99 -157h-74z" />
<glyph unicode="&#xca;" horiz-adv-x="517" d="M75 0v705h392v-95h-294v-212h214v-87h-214v-216h294v-95h-392zM104 785l120 153h92l120 -153h-78l-88 94l-89 -94h-77z" />
<glyph unicode="&#xcb;" horiz-adv-x="517" d="M75 0v705h392v-95h-294v-212h214v-87h-214v-216h294v-95h-392zM141 829q0 19 13.5 33t32.5 14t33 -14t14 -33t-14 -33t-33 -14t-32.5 14t-13.5 33zM311 829q0 19 13.5 33t32.5 14t33 -14t14 -33t-14 -33t-33 -14t-32.5 14t-13.5 33z" />
<glyph unicode="&#xcc;" horiz-adv-x="248" d="M75 0v705h98v-705h-98zM2 941h101l72 -157h-75z" />
<glyph unicode="&#xcd;" horiz-adv-x="248" d="M75 0v705h98v-705h-98zM78 784l71 157h102l-99 -157h-74z" />
<glyph unicode="&#xce;" horiz-adv-x="248" d="M75 0v705h98v-705h-98zM-42 785l120 153h92l120 -153h-78l-88 94l-89 -94h-77z" />
<glyph unicode="&#xcf;" horiz-adv-x="248" d="M75 0v705h98v-705h-98zM-7 829q0 19 13.5 33t32.5 14t33 -14t14 -33t-14 -33t-33 -14t-32.5 14t-13.5 33zM163 829q0 19 13.5 33t32.5 14t33 -14t14 -33t-14 -33t-33 -14t-32.5 14t-13.5 33z" />
<glyph unicode="&#xd0;" horiz-adv-x="592" d="M75 0v334h-75v40h75v331h226q107 0 171.5 -67.5t64.5 -193.5v-182q0 -125 -64.5 -193.5t-171.5 -68.5h-226zM173 94h117q149 0 149 191v137q0 102 -39.5 145t-109.5 43h-117v-236h117v-40h-117v-240z" />
<glyph unicode="&#xd1;" horiz-adv-x="624" d="M145 854q46 31 91 31q27 0 75 -16t72 -16q47 0 95 35v-74q-44 -34 -90 -34q-27 0 -74 17t-71 18q-48 0 -98 -35v74zM75 0v705h91l284 -518v518h99v-705h-92l-284 516v-516h-98z" />
<glyph unicode="&#xd2;" d="M290 -9q-104 0 -169.5 68t-65.5 176v237q0 108 65.5 176.5t169.5 68.5t170 -68.5t66 -176.5v-237q0 -108 -66 -176t-170 -68zM153 232q0 -70 38.5 -108.5t98.5 -38.5q57 0 97 37t40 109v245q0 70 -38.5 108.5t-98.5 38.5q-57 0 -97 -37t-40 -109v-245zM162 941h101 l72 -157h-75z" />
<glyph unicode="&#xd3;" d="M290 -9q-104 0 -169.5 68t-65.5 176v237q0 108 65.5 176.5t169.5 68.5t170 -68.5t66 -176.5v-237q0 -108 -66 -176t-170 -68zM153 232q0 -70 38.5 -108.5t98.5 -38.5q57 0 97 37t40 109v245q0 70 -38.5 108.5t-98.5 38.5q-57 0 -97 -37t-40 -109v-245zM243 784l71 157 h102l-99 -157h-74z" />
<glyph unicode="&#xd4;" d="M290 -9q-104 0 -169.5 68t-65.5 176v237q0 108 65.5 176.5t169.5 68.5t170 -68.5t66 -176.5v-237q0 -108 -66 -176t-170 -68zM124 785l120 153h92l120 -153h-78l-88 94l-89 -94h-77zM153 232q0 -70 38.5 -108.5t98.5 -38.5q57 0 97 37t40 109v245q0 70 -38.5 108.5 t-98.5 38.5q-57 0 -97 -37t-40 -109v-245z" />
<glyph unicode="&#xd5;" d="M290 -9q-104 0 -169.5 68t-65.5 176v237q0 108 65.5 176.5t169.5 68.5t170 -68.5t66 -176.5v-237q0 -108 -66 -176t-170 -68zM124 780v74q46 31 91 31q27 0 75 -16t72 -16q47 0 95 35v-74q-44 -34 -90 -34q-27 0 -74 17t-71 18q-48 0 -98 -35zM153 232q0 -70 38.5 -108.5 t98.5 -38.5q57 0 97 37t40 109v245q0 70 -38.5 108.5t-98.5 38.5q-57 0 -97 -37t-40 -109v-245z" />
<glyph unicode="&#xd6;" d="M290 -9q-104 0 -169.5 68t-65.5 176v237q0 108 65.5 176.5t169.5 68.5t170 -68.5t66 -176.5v-237q0 -108 -66 -176t-170 -68zM153 232q0 -70 38.5 -108.5t98.5 -38.5q57 0 97 37t40 109v245q0 70 -38.5 108.5t-98.5 38.5q-57 0 -97 -37t-40 -109v-245zM159 829 q0 19 13.5 33t32.5 14t33 -14t14 -33t-14 -33t-33 -14t-32.5 14t-13.5 33zM329 829q0 19 13.5 33t32.5 14t33 -14t14 -33t-14 -33t-33 -14t-32.5 14t-13.5 33z" />
<glyph unicode="&#xd7;" horiz-adv-x="481" d="M365 170l-125 124l-124 -124l-61 61l124 124l-124 125l61 61l124 -125l123 125l62 -61l-124 -125l125 -124z" />
<glyph unicode="&#xd8;" d="M128 -79l34 105q-51 31 -79 85.5t-28 123.5v237q0 108 65.5 176.5t169.5 68.5q47 0 90 -16l29 88h43l-35 -106q51 -32 80 -87t29 -124v-237q0 -108 -66 -176t-170 -68q-47 0 -92 16l-28 -86h-42zM153 232q0 -72 40 -110l158 489q-27 12 -61 12q-57 0 -97 -37t-40 -109 v-245zM227 98q27 -13 63 -13q57 0 97 37t40 109v245q0 72 -41 111z" />
<glyph unicode="&#xd9;" horiz-adv-x="601" d="M300 -9q-104 0 -169.5 68t-65.5 176v470h98v-473q0 -73 39.5 -110t97.5 -37q60 0 99 38.5t39 108.5v473h98v-470q0 -108 -66 -176t-170 -68zM175 941h101l72 -157h-75z" />
<glyph unicode="&#xda;" horiz-adv-x="601" d="M300 -9q-104 0 -169.5 68t-65.5 176v470h98v-473q0 -73 39.5 -110t97.5 -37q60 0 99 38.5t39 108.5v473h98v-470q0 -108 -66 -176t-170 -68zM257 784l71 157h102l-99 -157h-74z" />
<glyph unicode="&#xdb;" horiz-adv-x="601" d="M300 -9q-104 0 -169.5 68t-65.5 176v470h98v-473q0 -73 39.5 -110t97.5 -37q60 0 99 38.5t39 108.5v473h98v-470q0 -108 -66 -176t-170 -68zM134 785l120 153h92l120 -153h-78l-88 94l-89 -94h-77z" />
<glyph unicode="&#xdc;" horiz-adv-x="601" d="M300 -9q-104 0 -169.5 68t-65.5 176v470h98v-473q0 -73 39.5 -110t97.5 -37q60 0 99 38.5t39 108.5v473h98v-470q0 -108 -66 -176t-170 -68zM169 829q0 19 13.5 33t32.5 14t33 -14t14 -33t-14 -33t-33 -14t-32.5 14t-13.5 33zM339 829q0 19 13.5 33t32.5 14t33 -14 t14 -33t-14 -33t-33 -14t-32.5 14t-13.5 33z" />
<glyph unicode="&#xdd;" horiz-adv-x="568" d="M234 0v257l-219 448h106l162 -346l165 346h105l-221 -448v-257h-98zM242 784l71 157h102l-99 -157h-74z" />
<glyph unicode="&#xde;" horiz-adv-x="563" d="M75 0v705h98v-86h116q106 0 170 -65t64 -183v-27q0 -117 -64 -180.5t-170 -63.5h-116v-100h-98zM173 194h104q67 0 108 37.5t41 113.5v26q0 48 -14.5 80t-43 47t-59.5 20.5t-76 5.5h-60v-330z" />
<glyph unicode="&#xdf;" horiz-adv-x="565" d="M283 82q83 -4 111 30t28 104v117q0 80 -31 114.5t-108 34.5v79q97 0 97 52v12q0 21 -17.5 35t-55.5 14h-30q-49 0 -68 -25t-19 -88v-561h-94v480h-61v81h61q2 100 46.5 147t140.5 47h20q75 0 122.5 -32t47.5 -87v-18q0 -33 -17 -59t-54 -34q60 -18 86.5 -62t26.5 -118 v-128q0 -106 -60 -168t-172 -53v86z" />
<glyph unicode="&#xe0;" horiz-adv-x="538" d="M232 -9q-85 0 -133.5 57.5t-48.5 162.5v140q0 106 49.5 162.5t132.5 56.5q58 0 98 -26.5t55 -59.5v78h88v-562h-88v77q-14 -33 -54 -59.5t-99 -26.5zM116 791h101l72 -157h-75zM144 224q0 -155 118 -155q58 0 88 39.5t30 115.5v119q0 73 -31 111t-87 38q-118 0 -118 -153 v-115z" />
<glyph unicode="&#xe1;" horiz-adv-x="538" d="M232 -9q-85 0 -133.5 57.5t-48.5 162.5v140q0 106 49.5 162.5t132.5 56.5q58 0 98 -26.5t55 -59.5v78h88v-562h-88v77q-14 -33 -54 -59.5t-99 -26.5zM144 224q0 -155 118 -155q58 0 88 39.5t30 115.5v119q0 73 -31 111t-87 38q-118 0 -118 -153v-115zM191 635l71 157h102 l-99 -157h-74z" />
<glyph unicode="&#xe2;" horiz-adv-x="538" d="M232 -9q-85 0 -133.5 57.5t-48.5 162.5v140q0 106 49.5 162.5t132.5 56.5q58 0 98 -26.5t55 -59.5v78h88v-562h-88v77q-14 -33 -54 -59.5t-99 -26.5zM103 635l120 153h92l120 -153h-78l-88 94l-89 -94h-77zM144 224q0 -155 118 -155q58 0 88 39.5t30 115.5v119 q0 73 -31 111t-87 38q-118 0 -118 -153v-115z" />
<glyph unicode="&#xe3;" horiz-adv-x="538" d="M232 -9q-85 0 -133.5 57.5t-48.5 162.5v140q0 106 49.5 162.5t132.5 56.5q58 0 98 -26.5t55 -59.5v78h88v-562h-88v77q-14 -33 -54 -59.5t-99 -26.5zM103 627v74q46 31 91 31q27 0 75 -16t72 -16q47 0 95 35v-74q-44 -34 -90 -34q-27 0 -74 17t-71 18q-48 0 -98 -35z M144 224q0 -155 118 -155q58 0 88 39.5t30 115.5v119q0 73 -31 111t-87 38q-118 0 -118 -153v-115z" />
<glyph unicode="&#xe4;" horiz-adv-x="538" d="M232 -9q-85 0 -133.5 57.5t-48.5 162.5v140q0 106 49.5 162.5t132.5 56.5q58 0 98 -26.5t55 -59.5v78h88v-562h-88v77q-14 -33 -54 -59.5t-99 -26.5zM137 679q0 19 13.5 33t32.5 14t33 -14t14 -33t-14 -33t-33 -14t-32.5 14t-13.5 33zM144 224q0 -155 118 -155 q58 0 88 39.5t30 115.5v119q0 73 -31 111t-87 38q-118 0 -118 -153v-115zM307 679q0 19 13.5 33t32.5 14t33 -14t14 -33t-14 -33t-33 -14t-32.5 14t-13.5 33z" />
<glyph unicode="&#xe5;" horiz-adv-x="538" d="M232 -9q-85 0 -133.5 57.5t-48.5 162.5v140q0 106 49.5 162.5t132.5 56.5q58 0 98 -26.5t55 -59.5v78h88v-562h-88v77q-14 -33 -54 -59.5t-99 -26.5zM144 224q0 -155 118 -155q58 0 88 39.5t30 115.5v119q0 73 -31 111t-87 38q-118 0 -118 -153v-115zM188 712q0 34 24 57 t58 23t57 -23t23 -57t-23 -58t-57 -24t-58 24t-24 58zM236 713q0 -14 10 -24t24 -10q13 0 22.5 10t9.5 24q0 13 -9 22.5t-23 9.5t-24 -9.5t-10 -22.5z" />
<glyph unicode="&#xe6;" horiz-adv-x="848" d="M232 -9q-85 0 -133.5 57.5t-48.5 162.5v140q0 106 49.5 162.5t132.5 56.5q58 0 96.5 -24t56.5 -55v71h88v-70q12 32 52 55t88 23q93 0 141.5 -56.5t48.5 -161.5v-97h-330v-44q0 -64 33 -103.5t86 -39.5q52 0 85 29t33 76v9h93v-4q0 -78 -48.5 -133t-141.5 -55 q-103 0 -140 87v-77h-88v77q-14 -33 -54 -59.5t-99 -26.5zM144 224q0 -155 118 -155q58 0 88 39.5t30 115.5v119q0 73 -31 111t-87 38q-118 0 -118 -153v-115zM473 323h237v35q0 133 -118 133q-54 0 -86.5 -36t-32.5 -104v-28z" />
<glyph unicode="&#xe7;" horiz-adv-x="518" d="M137 -159l83 152q-81 12 -125.5 70t-44.5 148v134q0 104 56 164t156 60q101 0 156 -58.5t55 -165.5v-2h-93v2q0 137 -118 137q-62 0 -90.5 -35t-28.5 -114v-123q0 -63 30 -98.5t89 -35.5q118 0 118 137v3h93v-3q0 -98 -49 -156.5t-138 -65.5l-48 -150h-101z" />
<glyph unicode="&#xe8;" horiz-adv-x="518" d="M262 -10q-100 0 -156 59.5t-56 161.5v136q0 103 56 163t156 60t155.5 -57.5t55.5 -160.5v-97h-330v-63q0 -58 33.5 -91t85.5 -33t85 29t33 76v9h93v-4q0 -80 -57 -134t-154 -54zM131 792h101l72 -157h-75zM143 323h237v35q0 133 -118 133q-55 0 -87 -32.5t-32 -92.5v-43z " />
<glyph unicode="&#xe9;" horiz-adv-x="518" d="M262 -10q-100 0 -156 59.5t-56 161.5v136q0 103 56 163t156 60t155.5 -57.5t55.5 -160.5v-97h-330v-63q0 -58 33.5 -91t85.5 -33t85 29t33 76v9h93v-4q0 -80 -57 -134t-154 -54zM143 323h237v35q0 133 -118 133q-55 0 -87 -32.5t-32 -92.5v-43zM219 635l71 157h102 l-99 -157h-74z" />
<glyph unicode="&#xea;" horiz-adv-x="518" d="M262 -10q-100 0 -156 59.5t-56 161.5v136q0 103 56 163t156 60t155.5 -57.5t55.5 -160.5v-97h-330v-63q0 -58 33.5 -91t85.5 -33t85 29t33 76v9h93v-4q0 -80 -57 -134t-154 -54zM93 634l120 153h92l120 -153h-78l-88 94l-89 -94h-77zM143 323h237v35q0 133 -118 133 q-55 0 -87 -32.5t-32 -92.5v-43z" />
<glyph unicode="&#xeb;" horiz-adv-x="518" d="M262 -10q-100 0 -156 59.5t-56 161.5v136q0 103 56 163t156 60t155.5 -57.5t55.5 -160.5v-97h-330v-63q0 -58 33.5 -91t85.5 -33t85 29t33 76v9h93v-4q0 -80 -57 -134t-154 -54zM127 680q0 19 13.5 33t32.5 14t33 -13.5t14 -33.5t-14 -33.5t-33 -13.5t-32.5 14t-13.5 33z M143 323h237v35q0 133 -118 133q-55 0 -87 -32.5t-32 -92.5v-43zM297 680q0 19 13.5 33t32.5 14t33 -13.5t14 -33.5t-14 -33.5t-33 -13.5t-32.5 14t-13.5 33z" />
<glyph unicode="&#xec;" horiz-adv-x="218" d="M62 0v562h93v-562h-93zM-17 792h101l72 -157h-75z" />
<glyph unicode="&#xed;" horiz-adv-x="218" d="M62 0v562h93v-562h-93zM61 635l71 157h102l-99 -157h-74z" />
<glyph unicode="&#xee;" horiz-adv-x="218" d="M62 0v562h93v-562h-93zM-57 636l120 153h92l120 -153h-78l-88 94l-89 -94h-77z" />
<glyph unicode="&#xef;" horiz-adv-x="218" d="M62 0v562h93v-562h-93zM-22 680q0 19 13.5 33t32.5 14q20 0 33.5 -13.5t13.5 -33.5t-13.5 -33.5t-33.5 -13.5q-19 0 -32.5 14t-13.5 33zM148 680q0 19 13.5 33t32.5 14q20 0 33.5 -13.5t13.5 -33.5t-13.5 -33.5t-33.5 -13.5q-19 0 -32.5 14t-13.5 33z" />
<glyph unicode="&#xf0;" horiz-adv-x="526" d="M262 -11q-97 0 -154.5 63t-57.5 172v122q0 102 51.5 162.5t141.5 60.5q48 0 77 -17l-43 81h-91v40h70l-41 79h97l40 -79h88v-40h-68l48 -91q56 -110 56 -205v-113q0 -109 -57.5 -172t-156.5 -63zM143 228q0 -83 30 -118t89 -35t89.5 35t30.5 118v111q0 146 -120 146 q-119 0 -119 -146v-111z" />
<glyph unicode="&#xf1;" horiz-adv-x="544" d="M65 0v562h88v-79q14 33 54.5 59.5t98.5 26.5q86 0 134.5 -57t48.5 -161v-351h-94v340q0 74 -27.5 112.5t-91.5 38.5q-65 0 -91.5 -37t-26.5 -119v-335h-93zM106 632v74q46 31 91 31q27 0 75 -16t72 -16q47 0 95 35v-74q-44 -34 -90 -34q-27 0 -74 17t-71 18 q-48 0 -98 -35z" />
<glyph unicode="&#xf2;" horiz-adv-x="523" d="M262 -10q-100 0 -156 60t-56 164v133q0 102 56 161.5t156 59.5q98 0 154.5 -60t56.5 -161v-133q0 -104 -56 -164t-155 -60zM137 792h101l72 -157h-75zM143 202q0 -61 32 -94t87 -33q53 0 85.5 33t32.5 94v156q0 60 -32 92.5t-86 32.5q-55 0 -87 -32.5t-32 -92.5v-156z " />
<glyph unicode="&#xf3;" horiz-adv-x="523" d="M262 -10q-100 0 -156 60t-56 164v133q0 102 56 161.5t156 59.5q98 0 154.5 -60t56.5 -161v-133q0 -104 -56 -164t-155 -60zM143 202q0 -61 32 -94t87 -33q53 0 85.5 33t32.5 94v156q0 60 -32 92.5t-86 32.5q-55 0 -87 -32.5t-32 -92.5v-156zM215 634l71 157h102l-99 -157 h-74z" />
<glyph unicode="&#xf4;" horiz-adv-x="523" d="M262 -10q-100 0 -156 60t-56 164v133q0 102 56 161.5t156 59.5q98 0 154.5 -60t56.5 -161v-133q0 -104 -56 -164t-155 -60zM96 634l120 153h92l120 -153h-78l-88 94l-89 -94h-77zM143 202q0 -61 32 -94t87 -33q53 0 85.5 33t32.5 94v156q0 60 -32 92.5t-86 32.5 q-55 0 -87 -32.5t-32 -92.5v-156z" />
<glyph unicode="&#xf5;" horiz-adv-x="523" d="M262 -10q-100 0 -156 60t-56 164v133q0 102 56 161.5t156 59.5q98 0 154.5 -60t56.5 -161v-133q0 -104 -56 -164t-155 -60zM95 628v74q46 31 91 31q27 0 75 -16t72 -16q47 0 95 35v-74q-44 -34 -90 -34q-27 0 -74 17t-71 18q-48 0 -98 -35zM143 202q0 -61 32 -94t87 -33 q53 0 85.5 33t32.5 94v156q0 60 -32 92.5t-86 32.5q-55 0 -87 -32.5t-32 -92.5v-156z" />
<glyph unicode="&#xf6;" horiz-adv-x="523" d="M262 -10q-100 0 -156 60t-56 164v133q0 102 56 161.5t156 59.5q98 0 154.5 -60t56.5 -161v-133q0 -104 -56 -164t-155 -60zM130 678q0 19 13.5 33t32.5 14q20 0 33.5 -13.5t13.5 -33.5t-13.5 -33.5t-33.5 -13.5q-19 0 -32.5 14t-13.5 33zM143 202q0 -61 32 -94t87 -33 q53 0 85.5 33t32.5 94v156q0 60 -32 92.5t-86 32.5q-55 0 -87 -32.5t-32 -92.5v-156zM300 678q0 19 13.5 33t32.5 14q20 0 33.5 -13.5t13.5 -33.5t-13.5 -33.5t-33.5 -13.5q-19 0 -32.5 14t-13.5 33z" />
<glyph unicode="&#xf7;" horiz-adv-x="474" d="M55 310v86h376v-86h-376zM182 199q0 23 15.5 39t38.5 16t38.5 -16t15.5 -39q0 -22 -16 -38t-38 -16t-38 16t-16 38zM182 507q0 23 15.5 39t38.5 16t38.5 -16t15.5 -39q0 -22 -16 -38t-38 -16t-38 16t-16 38z" />
<glyph unicode="&#xf8;" horiz-adv-x="523" d="M130 -79l28 91q-108 52 -108 202v133q0 102 56 161.5t156 59.5q30 0 63 -7l24 78h43l-28 -92q109 -53 109 -200v-133q0 -104 -56 -164t-155 -60q-34 0 -66 8l-24 -77h-42zM143 202q0 -70 41 -103l116 379q-20 5 -38 5q-55 0 -87 -32.5t-32 -92.5v-156zM221 81 q18 -6 41 -6q53 0 85.5 33t32.5 94v156q0 69 -43 102z" />
<glyph unicode="&#xf9;" horiz-adv-x="534" d="M267 -10q-98 0 -155 57.5t-57 154.5v360h93v-373q0 -54 34.5 -84t84.5 -30q51 0 84.5 30.5t33.5 83.5v373h94v-360q0 -96 -58 -154t-154 -58zM165 792h101l72 -157h-75z" />
<glyph unicode="&#xfa;" horiz-adv-x="534" d="M267 -10q-98 0 -155 57.5t-57 154.5v360h93v-373q0 -54 34.5 -84t84.5 -30q51 0 84.5 30.5t33.5 83.5v373h94v-360q0 -96 -58 -154t-154 -58zM206 636l71 157h102l-99 -157h-74z" />
<glyph unicode="&#xfb;" horiz-adv-x="534" d="M267 -10q-98 0 -155 57.5t-57 154.5v360h93v-373q0 -54 34.5 -84t84.5 -30q51 0 84.5 30.5t33.5 83.5v373h94v-360q0 -96 -58 -154t-154 -58zM101 633l120 153h92l120 -153h-78l-88 94l-89 -94h-77z" />
<glyph unicode="&#xfc;" horiz-adv-x="534" d="M267 -10q-98 0 -155 57.5t-57 154.5v360h93v-373q0 -54 34.5 -84t84.5 -30q51 0 84.5 30.5t33.5 83.5v373h94v-360q0 -96 -58 -154t-154 -58zM135 680q0 19 13.5 33t32.5 14t33 -13.5t14 -33.5t-14 -33.5t-33 -13.5t-32.5 14t-13.5 33zM305 680q0 19 13.5 33t32.5 14 t33 -13.5t14 -33.5t-14 -33.5t-33 -13.5t-32.5 14t-13.5 33z" />
<glyph unicode="&#xfd;" horiz-adv-x="515" d="M142 -188l67 191l-192 559h104l137 -433l138 433h102l-259 -750h-97zM216 635l71 157h102l-99 -157h-74z" />
<glyph unicode="&#xfe;" horiz-adv-x="544" d="M65 -197v949h93v-269q15 34 52.5 60t95.5 26q86 0 134.5 -57t48.5 -161v-140q0 -106 -48.5 -163t-134.5 -57q-58 0 -96 24.5t-52 57.5v-270h-93zM158 223q0 -76 30.5 -115.5t87.5 -39.5q58 0 88.5 40t30.5 115v115q0 74 -30 113.5t-89 39.5q-56 0 -87 -38t-31 -110v-120z " />
<glyph unicode="&#xff;" horiz-adv-x="515" d="M142 -188l67 191l-192 559h104l137 -433l138 433h102l-259 -750h-97zM126 677q0 19 13.5 33t32.5 14q20 0 33.5 -14t13.5 -33t-13.5 -33t-33.5 -14q-19 0 -32.5 14t-13.5 33zM296 677q0 19 13.5 33t32.5 14q20 0 33.5 -14t13.5 -33t-13.5 -33t-33.5 -14q-19 0 -32.5 14 t-13.5 33z" />
<glyph unicode="&#x13f;" horiz-adv-x="469" d="M75 0v705h98v-610h271v-95h-369zM270 337q0 25 17 42.5t42 17.5t42 -17.5t17 -42.5q0 -24 -17 -41.5t-42 -17.5t-42 17.5t-17 41.5z" />
<glyph unicode="&#x140;" horiz-adv-x="308" d="M65 0v752h94v-752h-94zM205 336q0 22 15 37t37 15t36.5 -15t14.5 -37q0 -21 -14.5 -36t-36.5 -15t-37 15t-15 36z" />
<glyph unicode="&#x152;" horiz-adv-x="870" d="M279 -1q-99 0 -161.5 69t-62.5 173v231q0 100 57 167.5t146 67.5q123 0 169 -70v68h393v-95h-294v-212h214v-87h-214v-216h294v-95h-393v68q-50 -69 -148 -69zM153 232q0 -70 38.5 -108.5t98.5 -38.5q57 0 97 37t40 109v245q0 70 -38.5 108.5t-98.5 38.5q-57 0 -97 -37 t-40 -109v-245z" />
<glyph unicode="&#x153;" horiz-adv-x="848" d="M262 -10q-100 0 -156 60t-56 164v133q0 102 56 161.5t156 59.5q58 0 102.5 -25t61.5 -58q20 36 63 60.5t103 24.5q100 0 155.5 -57.5t55.5 -160.5v-97h-330v-63q0 -58 33.5 -91t85.5 -33t85 29t33 76v9h93v-4q0 -80 -57 -134t-154 -54q-59 0 -101.5 25t-64.5 61 q-21 -37 -62.5 -61.5t-101.5 -24.5zM143 202q0 -61 32 -94t87 -33q53 0 85.5 33t32.5 94v156q0 60 -32 92.5t-86 32.5q-55 0 -87 -32.5t-32 -92.5v-156zM473 323h237v35q0 133 -118 133q-55 0 -87 -32.5t-32 -92.5v-43z" />
<glyph unicode="&#x178;" horiz-adv-x="568" d="M234 0v257l-219 448h106l162 -346l165 346h105l-221 -448v-257h-98zM152 829q0 19 13.5 33t32.5 14q20 0 33.5 -14t13.5 -33t-13.5 -33t-33.5 -14q-19 0 -32.5 14t-13.5 33zM322 829q0 19 13.5 33t32.5 14q20 0 33.5 -14t13.5 -33t-13.5 -33t-33.5 -14q-19 0 -32.5 14 t-13.5 33z" />
<glyph unicode="&#x2c6;" horiz-adv-x="580" d="M124 585l120 153h92l120 -153h-78l-88 94l-89 -94h-77z" />
<glyph unicode="&#x2dc;" horiz-adv-x="578" d="M122 654q46 31 91 31q27 0 75 -16t72 -16q47 0 95 35v-74q-44 -34 -90 -34q-27 0 -74 17t-71 18q-48 0 -98 -35v74z" />
<glyph unicode="&#x2000;" horiz-adv-x="471" />
<glyph unicode="&#x2001;" horiz-adv-x="942" />
<glyph unicode="&#x2002;" horiz-adv-x="471" />
<glyph unicode="&#x2003;" horiz-adv-x="942" />
<glyph unicode="&#x2004;" horiz-adv-x="314" />
<glyph unicode="&#x2005;" horiz-adv-x="235" />
<glyph unicode="&#x2006;" horiz-adv-x="157" />
<glyph unicode="&#x2007;" horiz-adv-x="157" />
<glyph unicode="&#x2008;" horiz-adv-x="117" />
<glyph unicode="&#x2009;" horiz-adv-x="188" />
<glyph unicode="&#x200a;" horiz-adv-x="52" />
<glyph unicode="&#x2010;" horiz-adv-x="353" d="M45 246v75h263v-75h-263z" />
<glyph unicode="&#x2011;" horiz-adv-x="353" d="M45 246v75h263v-75h-263z" />
<glyph unicode="&#x2012;" horiz-adv-x="353" d="M45 246v75h263v-75h-263z" />
<glyph unicode="&#x2013;" horiz-adv-x="527" d="M45 246v75h437v-75h-437z" />
<glyph unicode="&#x2014;" horiz-adv-x="746" d="M45 246v75h656v-75h-656z" />
<glyph unicode="&#x2018;" horiz-adv-x="251" d="M20 378l131 328h75l-105 -328h-101z" />
<glyph unicode="&#x2019;" horiz-adv-x="246" d="M25 378l104 328h102l-132 -328h-74z" />
<glyph unicode="&#x201a;" horiz-adv-x="246" d="M5 -126l104 323h102l-132 -323h-74z" />
<glyph unicode="&#x201c;" horiz-adv-x="427" d="M196 378l131 328h75l-105 -328h-101zM20 378l131 328h75l-105 -328h-101z" />
<glyph unicode="&#x201d;" horiz-adv-x="422" d="M201 378l104 328h102l-132 -328h-74zM25 378l104 328h102l-132 -328h-74z" />
<glyph unicode="&#x201e;" horiz-adv-x="422" d="M181 -131l104 323h102l-132 -323h-74zM5 -131l104 323h102l-132 -323h-74z" />
<glyph unicode="&#x2022;" horiz-adv-x="495" d="M248 88q-92 0 -142.5 54t-50.5 150v6q0 93 51 147.5t142 54.5q89 0 140.5 -54.5t51.5 -147.5v-6q0 -95 -51 -149.5t-141 -54.5z" />
<glyph unicode="&#x2026;" horiz-adv-x="633" d="M529 -7q-25 0 -42 17.5t-17 41.5q0 25 17 42.5t42 17.5t42 -17.5t17 -42.5q0 -24 -17 -41.5t-42 -17.5zM45 52q0 25 17 42.5t42 17.5t42 -17.5t17 -42.5q0 -24 -17 -41.5t-42 -17.5t-42 17.5t-17 41.5zM257 52q0 25 17.5 42.5t41.5 17.5q25 0 42.5 -17.5t17.5 -42.5 q0 -24 -17.5 -41.5t-42.5 -17.5q-24 0 -41.5 17.5t-17.5 41.5z" />
<glyph unicode="&#x202f;" horiz-adv-x="188" />
<glyph unicode="&#x2039;" horiz-adv-x="294" d="M175 84l-130 202l130 203h74l-103 -203l103 -202h-74z" />
<glyph unicode="&#x203a;" horiz-adv-x="294" d="M45 84l103 202l-103 203h74l130 -203l-130 -202h-74z" />
<glyph unicode="&#x205f;" horiz-adv-x="235" />
<glyph unicode="&#x20ac;" horiz-adv-x="613" d="M333 -12q-104 0 -170 68t-66 176v45h-62v41h62v67h-62v41h62v47q0 108 66 176.5t170 68.5q110 0 172 -72t62 -190v-4h-98v3q0 82 -38.5 125t-97.5 43t-98.5 -38.5t-39.5 -108.5v-50h140v-41h-140v-67h140v-41h-140v-48q0 -72 38.5 -111t98.5 -39q71 0 104 49t33 116v6h98 v-6q0 -114 -62.5 -185t-171.5 -71z" />
<glyph unicode="&#x2122;" horiz-adv-x="746" d="M327 342v363h60l113 -237l112 237h59v-363h-61v226l-89 -182h-43l-89 182v-226h-62zM45 646v59h238v-59h-89v-304h-61v304h-88z" />
<glyph unicode="&#x25fc;" horiz-adv-x="560" d="M0 560h560v-560h-560v560z" />
<glyph horiz-adv-x="218" d="M62 0v562h93v-562h-93zM53 686q0 25 17 42t42 17t42 -17t17 -42t-17 -42t-42 -17t-42 17t-17 42z" />
<glyph horiz-adv-x="528" d="M217 -8q-78 0 -128 40.5t-50 121.5q0 53 25 87.5t62 48t81 24.5t81 17t62 24.5t25 48.5q0 43 -29.5 64.5t-80.5 21.5q-56 0 -90.5 -28t-34.5 -88h-90q0 100 56 149.5t160 49.5q96 0 151.5 -46t55.5 -140v-387h-88v85q-14 -33 -56 -63t-112 -30zM133 159q0 -85 110 -85 q71 0 104 43t33 98v86q-28 -23 -75 -37.5t-82.5 -20t-62.5 -26.5t-27 -58z" />
<glyph horiz-adv-x="528" d="M191 635l71 157h102l-99 -157h-74zM39 154q0 53 25 87.5t62 48t81 24.5t81 17t62 24.5t25 48.5q0 43 -29.5 64.5t-80.5 21.5q-56 0 -90.5 -28t-34.5 -88h-90q0 100 56 149.5t160 49.5q96 0 151.5 -46t55.5 -140v-387h-88v85q-14 -33 -56 -63t-112 -30q-78 0 -128 40.5 t-50 121.5zM133 159q0 -85 110 -85q71 0 104 43t33 98v86q-28 -23 -75 -37.5t-82.5 -20t-62.5 -26.5t-27 -58z" />
<glyph horiz-adv-x="528" d="M103 635l120 153h92l120 -153h-78l-88 94l-89 -94h-77zM39 154q0 53 25 87.5t62 48t81 24.5t81 17t62 24.5t25 48.5q0 43 -29.5 64.5t-80.5 21.5q-56 0 -90.5 -28t-34.5 -88h-90q0 100 56 149.5t160 49.5q96 0 151.5 -46t55.5 -140v-387h-88v85q-14 -33 -56 -63t-112 -30 q-78 0 -128 40.5t-50 121.5zM133 159q0 -85 110 -85q71 0 104 43t33 98v86q-28 -23 -75 -37.5t-82.5 -20t-62.5 -26.5t-27 -58z" />
<glyph horiz-adv-x="528" d="M353 632q-19 0 -32.5 14t-13.5 33t13.5 33t32.5 14t33 -14t14 -33t-14 -33t-33 -14zM39 154q0 53 25 87.5t62 48t81 24.5t81 17t62 24.5t25 48.5q0 43 -29.5 64.5t-80.5 21.5q-56 0 -90.5 -28t-34.5 -88h-90q0 100 56 149.5t160 49.5q96 0 151.5 -46t55.5 -140v-387h-88 v85q-14 -33 -56 -63t-112 -30q-78 0 -128 40.5t-50 121.5zM133 159q0 -85 110 -85q71 0 104 43t33 98v86q-28 -23 -75 -37.5t-82.5 -20t-62.5 -26.5t-27 -58zM137 679q0 19 13.5 33t32.5 14t33 -14t14 -33t-14 -33t-33 -14t-32.5 14t-13.5 33z" />
<glyph horiz-adv-x="528" d="M214 634l-98 157h101l72 -157h-75zM39 154q0 53 25 87.5t62 48t81 24.5t81 17t62 24.5t25 48.5q0 43 -29.5 64.5t-80.5 21.5q-56 0 -90.5 -28t-34.5 -88h-90q0 100 56 149.5t160 49.5q96 0 151.5 -46t55.5 -140v-387h-88v85q-14 -33 -56 -63t-112 -30q-78 0 -128 40.5 t-50 121.5zM133 159q0 -85 110 -85q71 0 104 43t33 98v86q-28 -23 -75 -37.5t-82.5 -20t-62.5 -26.5t-27 -58z" />
<glyph horiz-adv-x="528" d="M265 630q-34 0 -58 24t-24 58t24 57t58 23t57 -23t23 -57t-23 -58t-57 -24zM39 154q0 53 25 87.5t62 48t81 24.5t81 17t62 24.5t25 48.5q0 43 -29.5 64.5t-80.5 21.5q-56 0 -90.5 -28t-34.5 -88h-90q0 100 56 149.5t160 49.5q96 0 151.5 -46t55.5 -140v-387h-88v85 q-14 -33 -56 -63t-112 -30q-78 0 -128 40.5t-50 121.5zM133 159q0 -85 110 -85q71 0 104 43t33 98v86q-28 -23 -75 -37.5t-82.5 -20t-62.5 -26.5t-27 -58zM231 713q0 -14 10 -24t24 -10q13 0 22.5 10t9.5 24q0 13 -9.5 22.5t-22.5 9.5q-14 0 -24 -9.5t-10 -22.5z" />
<glyph horiz-adv-x="528" d="M217 -8q-78 0 -128 40.5t-50 121.5q0 53 25 87.5t62 48t81 24.5t81 17t62 24.5t25 48.5q0 43 -29.5 64.5t-80.5 21.5q-56 0 -90.5 -28t-34.5 -88h-90q0 100 56 149.5t160 49.5q96 0 151.5 -46t55.5 -140v-387h-88v85q-14 -33 -56 -63t-112 -30zM103 625v74q46 31 91 31 q27 0 75 -16t72 -16q47 0 95 35v-74q-44 -34 -90 -34q-27 0 -74 17t-71 18q-48 0 -98 -35zM133 159q0 -85 110 -85q71 0 104 43t33 98v86q-28 -23 -75 -37.5t-82.5 -20t-62.5 -26.5t-27 -58z" />
<glyph horiz-adv-x="859" d="M241 -8q-84 0 -137.5 40.5t-53.5 121.5q0 53 25 87.5t62 48t81 24.5t81 17t62 24.5t25 48.5q0 43 -29.5 64.5t-80.5 21.5q-55 0 -90 -29t-35 -89h-90q0 100 55.5 150.5t156.5 50.5q125 0 168 -87q48 84 173 84q95 0 147.5 -57.5t52.5 -160.5v-97h-330v-63q0 -58 33.5 -91 t85.5 -33t85 29t33 76v9h93v-4q0 -80 -54 -134t-146 -54q-129 0 -179 104q-53 -102 -194 -102zM144 159q0 -42 31 -63.5t81 -21.5q73 0 104 42t31 99v86q-18 -24 -61.5 -37t-83 -18.5t-71 -26.5t-31.5 -60zM484 323h237v35q0 133 -118 133q-55 0 -87 -32.5t-32 -92.5v-43z " />
<glyph d="M290 -9q-104 0 -169.5 68t-65.5 176v237q0 108 65.5 176.5t169.5 68.5t170 -68.5t66 -176.5v-237q0 -108 -66 -176t-170 -68zM153 254q0 -86 37 -127t100 -41t100.5 41t37.5 126v201q0 85 -37.5 126.5t-100.5 41.5t-100 -41.5t-37 -127.5v-199z" />
<glyph horiz-adv-x="590" d="M268 562q-25 -20 -120 -20v95q71 0 99 15t28 53h91v-610h98v-94h-333v94h137v467z" />
<glyph horiz-adv-x="590" d="M63 74q0 41 13 76t29 57t48 45.5t52 34t59 30.5l12 6q37 18 59 31.5t46.5 34t36 46.5t11.5 59q0 60 -37.5 95t-97.5 35q-67 0 -101 -39t-34 -103h-96q0 106 64.5 171t165.5 65q103 0 168 -62t65 -161q0 -22 -2.5 -42t-11 -37.5t-14 -31t-21 -29t-22 -23.5t-28 -22 t-27 -18.5t-31.5 -17.5t-29.5 -14.5t-31.5 -15.5q-35 -17 -55.5 -29t-44 -30.5t-35 -40.5t-12.5 -49h353v-95h-451v74z" />
<glyph horiz-adv-x="590" d="M285 -11q-108 0 -174 65t-66 180h100q0 -78 37.5 -116t102.5 -38q60 0 101.5 32.5t41.5 91.5q0 111 -130 111h-95v86h92q51 0 86.5 31t35.5 78q0 59 -39 90.5t-99 31.5q-62 0 -97.5 -36.5t-35.5 -113.5h-95q0 110 62 173t169 63q102 0 167 -55.5t65 -141.5 q0 -59 -27 -100t-76 -58q49 -14 82 -53t33 -101q0 -101 -66.5 -160.5t-174.5 -59.5z" />
<glyph horiz-adv-x="591" d="M360 0v170h-325v91l328 444h92v-444h91v-91h-91v-170h-95zM134 261h226v306z" />
<glyph horiz-adv-x="590" d="M285 -11q-104 0 -169.5 68t-65.5 176h97q0 -77 36 -113.5t99 -36.5q60 0 100.5 36t40.5 109v31q0 60 -40.5 95.5t-98.5 35.5q-86 0 -128 -74l-93 21l65 368h354v-95h-274l-34 -186q18 23 56 40t82 17q92 0 150.5 -58.5t58.5 -163.5v-31q0 -107 -65.5 -173t-170.5 -66z " />
<glyph horiz-adv-x="590" d="M297 -11q-107 0 -170.5 66.5t-63.5 176.5v26q0 64 15.5 112t45.5 101l134 234h106l-128 -219q36 13 82 13q100 0 157 -62.5t57 -165.5v-39q0 -110 -64.5 -176.5t-170.5 -66.5zM161 238q0 -154 136 -154q63 0 100 37.5t37 116.5v36q0 71 -37 107.5t-100 36.5t-99.5 -36.5 t-36.5 -107.5v-36z" />
<glyph horiz-adv-x="590" d="M177 0l211 610h-294v95h423l-242 -705h-98z" />
<glyph horiz-adv-x="590" d="M285 -6q-108 0 -174 53t-66 145q0 60 28.5 102t81.5 60q-98 41 -98 165q0 91 62.5 141.5t165.5 50.5t166 -51t63 -142q0 -125 -96 -163q108 -35 108 -163q0 -92 -67 -145t-174 -53zM145 201q0 -117 140 -117q141 0 141 120q0 54 -29.5 84t-83.5 30h-50q-55 0 -86.5 -29.5 t-31.5 -87.5zM152 506q0 -62 34 -86.5t99 -24.5h2q65 0 98 25t33 85q0 116 -133 116t-133 -115z" />
<glyph horiz-adv-x="590" d="M353 219q-41 -13 -81 -13q-100 0 -157 62.5t-57 165.5v39q0 110 64 176.5t170 66.5q107 0 171 -66.5t64 -176.5v-31q0 -101 -61 -207l-135 -235h-106zM156 431q0 -71 36.5 -107t99.5 -36q64 0 100.5 36t36.5 107v37q0 153 -137 153q-136 0 -136 -153v-37z" />
</font>
</defs>
</svg>
